Terminator.Dark.Fate.2019.1080p.WEB-DL.DD5.1.x264.LLG

  • Category Movies
  • Type HD
  • Language English
  • Total size 4.0 GB
  • Uploaded By LifeLongg
  • Downloads 88
  • Last checked 1 month ago
  • Date uploaded 1 month ago
  • Seeders 6
  • Leechers 3

Terminator: Dark Fate

ActionScience Fiction

Decades after Sarah Connor prevented Judgment Day, a lethal new Terminator is sent to eliminate the future leader of the resistance. In a fight to save mankind, battle-hardened Sarah Connor teams up with an unexpected ally and an enhanced super soldier to stop the deadliest Terminator yet.

Infohash : 9CDE7695E7CC125B980252ADB26DE2233A74EFCF

Quote:





******************************Thumbnail:**********************




******************************Screenshots:********************

Screenshot 1

Screenshot 2

Screenshot 3

Screenshot 4

Screenshot 5

Screenshot 6

Screenshot 7

Screenshot 8

Screenshot 9

Screenshot 0

**********************************************************

Terminator.Dark.Fate.2019.1080p.WEB-DL.DD5.1.x264.LLG.mp4
Format : MPEG-4
Format profile : Base Media
Codec ID : isom (isom/iso2/avc1/mp41)
File size : 3.93 GiB
Duration : 2 h 8 min
Overall bit rate mode : Variable
Overall bit rate : 4 391 kb/s
Writing application : Lavf57.83.100

Video
ID : 1
Format : AVC
Format/Info : Advanced Video Codec
Format profile : [email protected]
Format settings : CABAC / 1 Ref Frames
Format settings, CABAC : Yes
Format settings, Reference frames : 1 frame
Codec ID : avc1
Codec ID/Info : Advanced Video Coding
Duration : 2 h 8 min
Bit rate mode : Variable
Bit rate : 4 004 kb/s
Maximum bit rate : 12.0 Mb/s
Width : 1 920 pixels
Height : 1 080 pixels
Display aspect ratio : 16:9
Frame rate mode : Constant
Frame rate : 23.976 (23976/1000) FPS
Color space : YUV
Chroma subsampling : 4:2:0
Bit depth : 8 bits
Scan type : Progressive
Bits/(Pixel*Frame) : 0.081
Stream size : 3.58 GiB (91%)
Codec configuration box : avcC

Audio
ID : 2
Format : AC-3
Format/Info : Audio Coding 3
Commercial name : Dolby Digital
Codec ID : ac-3
Duration : 2 h 8 min
Bit rate mode : Constant
Bit rate : 384 kb/s
Channel(s) : 6 channels
Channel layout : L R C LFE Ls Rs
Sampling rate : 48.0 kHz
Frame rate : 31.250 FPS (1536 SPF)
Compression mode : Lossy
Stream size : 352 MiB (9%)
Title : English
Language : English
Service kind : Complete Main
Default : Yes
Alternate group : 1





**********************************************************



Files:

Terminator.Dark.Fate.2019.1080p.WEB-DL.DD5.1.x264.LLG
  • SAMPLE.ts (22.5 MB)
  • Terminator.Dark.Fate.2019.1080p.WEB-DL.DD5.1.x264.LLG.mp4 (3.9 GB)

There are currently no comments. Feel free to leave one :)

Code:

  • udp://tracker.openbittorrent.com:80/announce
  • udp://tracker.opentrackr.org:1337/announce
  • UDP://TRACKER.LEECHERS-PARADISE.ORG:6969/ANNOUNCE