Intercourse 2 (2020) Hotshots Hindi 1080p HDRip

  • Category Movies
  • Type Bollywood
  • Language Hindi
  • Total size 533.3 MB
  • Uploaded By krishh1337
  • Downloads 4162
  • Last checked 1 month ago
  • Date uploaded 1 month ago
  • Seeders 24
  • Leechers 12

Infohash : 51DF2859B9D30FBC49F96EFB2485EDC565C8C4C6



Intercourse 2 (2020) Hot Shots Web Movie

Story Line:
A Simple girl fall's in love with a guy from an Online Dating Site ..
What happens next is as hilarious as it can be... So let's enjoy Online Dating..

Cast: Veer, Pooja Joshi, Ashvini, Dilip.

Director: Tan.
SOURSE: BONSAI HD.
Water mark in the Video is not added by us. It's in the Sourse.


Format : Matroska
Format version : Version 4
File size : 533 MiB
Duration : 23 min 22 s
Overall bit rate : 3 191 kb/s

Video
ID : 1
Format : AVC
Format/Info : Advanced Video Codec
Format profile : [email protected]
Format settings : CABAC / 3 Ref Frames
Format settings, CABAC : Yes
Format settings, Reference : 3 frames
Codec ID : V_MPEG4/ISO/AVC
Duration : 23 min 22 s
Bit rate : 3 063 kb/s
Width : 1 920 pixels
Height : 1 080 pixels
Display aspect ratio : 16:9
Frame rate mode : Constant
Frame rate : 24.000 FPS
Color space : YUV
Chroma subsampling : 4:2:0
Bit depth : 8 bits
Scan type : Progressive
Bits/(Pixel*Frame) : 0.062
Stream size : 512 MiB (96%)
Writing library : x264 core

Audio
ID : 2
Format : AAC LC
Format/Info : Advanced Audio Codec Low Complexity
Codec ID : A_AAC-2
Duration : 23 min 22 s
Bit rate : 126 kb/s
Channel(s) : 2 channels
Channel layout : L R
Sampling rate : 44.1 kHz
Frame rate : 43.066 FPS (1024 SPF)
Compression mode : Lossy
Stream size : 21.0 MiB (4%)
Language : Hindi
Default : Yes
Forced : No

Files:

  • Intercourse 2 (2020) Hotshots Hindi 1080p HDRip.mkv (533.3 MB)

Comments

Code:

  • udp://tracker.coppersurfer.tk:6969/announce
  • udp://tracker.pirateparty.gr:6969/announce
  • udp://tracker.tiny-vps.com:6969/announce
  • http://t.nyaatracker.com:80/announce
  • udp://tracker.opentrackr.org:1337/announce
  • udp://open.stealth.si:80/announce
  • udp://tracker.internetwarriors.net:1337/announce
  • udp://tracker.leechers-paradise.org:6969/announce
  • udp://9.rarbg.to:2800/announce
  • http://tracker3.itzmx.com:6961/announce
  • http://tracker1.itzmx.com:8080/announce
  • http://tracker.electro-torrent.pl:80/announce
  • http://retracker.gorcomnet.ru/announce
  • udp://tracker.open-internet.nl:6969/announce
  • udp://open.demonii.si:1337/announce
  • udp://ipv4.tracker.harry.lu:80/announce
  • udp://tw.opentracker.ga:36920/announce
  • udp://denis.stalker.upeer.me:6969/announce
  • udp://bt.xxx-tracker.com:2710/announce
  • udp://tracker.vanitycore.co:6969/announce
  • http://tracker.city9x.com:2710/announce