Motherless.Brooklyn.2019.1080p.WEBRip.x264-RARBG

  • Category Movies
  • Type HD
  • Language English
  • Total size 2.8 GB
  • Uploaded By SirMadMax
  • Downloads 231
  • Last checked 1 month ago
  • Date uploaded 1 month ago
  • Seeders 31
  • Leechers 4

Motherless Brooklyn

CrimeMysteryDrama

Lionel Essrog, a private detective living with Tourette syndrome, ventures to solve the murder of his mentor and best friend — a mystery that carries him from the gin-soaked jazz clubs of Harlem to the slums of Brooklyn to the gilded halls of New York's power brokers.

Infohash : 3B86538DF3B67A01C0449EED6DBBC166F287130B



Plot: Set against the backdrop of 1950s New York, “Motherless Brooklyn” follows Lionel Essrog (Norton), a lonely private detective afflicted with Tourette’s Syndrome, as he ventures to solve his friend’s murder. Armed only with a few clues and the powerful engine of his obsessive mind, Lionel unravels closely-guarded secrets that hold the fate of the whole city in the balance.

Genre: Crime | Drama | Mystery
IMDB Rating: 7.1/10 From 8,784 Users
Directed by: Edward Norton
Starring: Edward Norton , Gugu Mbatha-Raw , Alec Baldwin , Bobby Cannavale

Video
ID : 1
Format : AVC
Format/Info : Advanced Video Codec
Format profile : [email protected]
Format settings : CABAC / 4 Ref Frames
Format settings, CABAC : Yes
Format settings, Reference frames : 4 frames
Codec ID : avc1
Codec ID/Info : Advanced Video Coding
Duration : 2 h 25 min
Bit rate : 2 500 kb/s
Width : 1 920 pixels
Height : 1 036 pixels
Display aspect ratio : 1.85:1
Frame rate mode : Constant
Frame rate : 23.976 (23976/1000) FPS
Color space : YUV
Chroma subsampling : 4:2:0
Bit depth : 8 bits
Scan type : Progressive
Bits/(Pixel*Frame) : 0.052
Stream size : 2.53 GiB (92%)
Writing library : x264 core 152 r2851M ba24899
Encoding settings : cabac=1 / ref=4 / deblock=1:-1:-1 / analyse=0x3:0x113 / me=umh / subme=9 / psy=1 / psy_rd=1.00:0.15 / mixed_ref=1 / me_range=24 / chroma_me=1 / trellis=2 / 8x8dct=1 / cqm=0 / deadzone=21,11 / fast_pskip=1 / chroma_qp_offset=-3 / threads=16 / lookahead_threads=4 / sliced_threads=0 / nr=0 / decimate=1 / interlaced=0 / bluray_compat=0 / constrained_intra=0 / bframes=3 / b_pyramid=2 / b_adapt=2 / b_bias=0 / direct=3 / weightb=1 / open_gop=0 / weightp=2 / keyint=250 / keyint_min=25 / scenecut=40 / intra_refresh=0 / rc_lookahead=50 / rc=2pass / mbtree=1 / bitrate=2500 / ratetol=1.0 / qcomp=0.60 / qpmin=0 / qpmax=69 / qpstep=4 / cplxblur=20.0 / qblur=0.5 / vbv_maxrate=31250 / vbv_bufsize=31250 / nal_hrd=none / filler=0 / ip_ratio=1.40 / aq=3:1.00
Encoded date : UTC 2020-01-14 08:26:21
Tagged date : UTC 2020-01-14 08:26:21
Codec configuration box : avcC

Audio
ID : 2
Format : AAC LC
Format/Info : Advanced Audio Codec Low Complexity
Codec ID : mp4a-40-2
Duration : 2 h 25 min
Bit rate mode : Constant
Bit rate : 224 kb/s
Channel(s) : 6 channels
Channel layout : C L R Ls Rs LFE
Sampling rate : 48.0 kHz
Frame rate : 46.875 FPS (1024 SPF)
Compression mode : Lossy
Stream size : 233 MiB (8%)
Language : English
Default : Yes
Alternate group : 1
Encoded date : UTC 2020-01-14 08:26:21
Tagged date : UTC 2020-01-14 08:26:21


Files:

Motherless.Brooklyn.2019.1080p.WEBRip.x264-RARBG
  • Motherless.Brooklyn.2019.1080p.WEBRip.x264-RARBG.mp4 (2.8 GB)
  • RARBG.txt (0.0 KB)
  • RARBG_DO_NOT_MIRROR.exe (0.1 KB)
  • Subs
    • 2_English.srt (172.5 KB)

There are currently no comments. Feel free to leave one :)

Code:

  • http://tracker.trackerfix.com:80/announce
  • udp://9.rarbg.me:2780/announce
  • udp://9.rarbg.to:2760/announce