Maid For Each Other (2020) Hot Shots Hindi 1080p WEB DL

  • Category Movies
  • Type Bollywood
  • Language Hindi
  • Total size 490.4 MB
  • Uploaded By krishh1337
  • Downloads 33401
  • Last checked 1 month ago
  • Date uploaded 1 month ago
  • Seeders 187
  • Leechers 32

Infohash : 7A534399850A4607F365D17D52BFF61EBB71F766



Maid for Each Other (2020) Hot Shots Hindi

Storyline :
A Man's Affair With His Housemaid Leads To A Dark Consequence.
His Disturbed Relationship With His Wife Leads Them Both To Get Intimate With Erotic
Encounters Weaved Into A Daisy Chain Of Delightful Sensuality As He Finds All That He Desires In Her.
But She Becomes Dangerously Infatuated With Him Along The Way.
Watch What Happens Next In The CONFESSION.

Cast: Micheal Rana, Gehna Vasisht, Revathi Acharya.
Director: M.j.

SOURSE: BONSAI HD.

Format : Matroska
Format version : Version 4
File size : 490 MiB
Duration : 19 min 34 s
Overall bit rate : 3 503 kb/s

Video
ID : 1
Format : AVC
Format/Info : Advanced Video Codec
Format profile : [email protected]
Format settings : CABAC / 3 Ref Frames
Format settings, CABAC : Yes
Format settings, Reference : 3 frames
Codec ID : V_MPEG4/ISO/AVC
Duration : 19 min 34 s
Bit rate : 3 379 kb/s
Width : 1 920 pixels
Height : 1 080 pixels
Display aspect ratio : 16:9
Frame rate mode : Constant
Frame rate : 25.000 FPS
Color space : YUV
Chroma subsampling : 4:2:0
Bit depth : 8 bits
Scan type : Progressive
Bits/(Pixel*Frame) : 0.065
Stream size : 473 MiB (96%)
Writing library : x264 core

Audio
ID : 2
Format : AAC LC
Format/Info : Advanced Audio Codec Low Complexity
Codec ID : A_AAC-2
Duration : 19 min 34 s
Bit rate : 122 kb/s
Channel(s) : 2 channels
Channel layout : L R
Sampling rate : 44.1 kHz
Frame rate : 43.066 FPS (1024 SPF)
Compression mode : Lossy
Stream size : 17.1 MiB (3%)
Language : Hindi
Default : Yes
Forced : No

Files:

  • Maid For Each Other (2020) Hot Shots Hindi 1080p WEB DL.mkv (490.4 MB)

Comments

Code:

  • udp://tracker.coppersurfer.tk:6969/announce
  • udp://tracker.pirateparty.gr:6969/announce
  • udp://tracker.tiny-vps.com:6969/announce
  • http://t.nyaatracker.com:80/announce
  • udp://tracker.opentrackr.org:1337/announce
  • udp://open.stealth.si:80/announce
  • udp://tracker.internetwarriors.net:1337/announce
  • udp://tracker.leechers-paradise.org:6969/announce
  • udp://9.rarbg.to:2800/announce
  • http://tracker3.itzmx.com:6961/announce
  • http://tracker1.itzmx.com:8080/announce
  • http://tracker.electro-torrent.pl:80/announce
  • http://retracker.gorcomnet.ru/announce
  • udp://tracker.open-internet.nl:6969/announce
  • udp://open.demonii.si:1337/announce
  • udp://ipv4.tracker.harry.lu:80/announce
  • udp://tw.opentracker.ga:36920/announce
  • udp://denis.stalker.upeer.me:6969/announce
  • udp://bt.xxx-tracker.com:2710/announce
  • udp://tracker.vanitycore.co:6969/announce
  • http://tracker.city9x.com:2710/announce